Ergebnis 1 bis 2 von 2

Thema: Goldrausch am Yukon S01 1080p x264 AC3 Webrip-iND

  1. #1
    dokkae.com Member Avatar von Naganime
    Registriert seit
    21.06.16
    Beiträge
    49
    Bedankt
    42
    Danke erhalten: 8

    Goldrausch am Yukon S01 1080p x264 AC3 Webrip-iND

    Goldrausch am Yukon S01 1080p x264 AC3 Webrip-iND



    Kanada, Yukon Territory: Traumziel für Outdoorfreaks, Aussteiger - und Goldsucher! Zwölf Kandidaten
    wagen das Abenteuer ihres Lebens: In nur 40 Tagen wollen sie sich von Goldgräberlegende David Millar
    zu professionellen Minern ausbilden lassen. Eine echte Herausforderung, aber eine, die sich lohnt!
    Denn die beiden, die die harte Ausbildung am besten meistern, dürfen nächstes Jahr wiederkommen und
    einen Claim auf eigene Rechnung bewirtschaften! In insgesamt acht Episoden bringt David Miller den
    Abenteurern aus Deutschland - 3 Frauen und 9 Männern - alles bei, was ein Miner können muss. Dazu gehört
    das Waschen mit der Goldpfanne genauso wie das Führen eines riesigen Schaufelbaggers. Und als wäre die
    harte Arbeit auf den Goldfeldern nicht schon genug, zehrt auch der entbehrungsreiche Alltag in der
    Wildnis Kanadas an den Kandidaten. Wer kann vor David Millar bestehen, wer fliegt vorzeitig raus? Wer
    darf seinen Traum vom Gold 2019 weiterleben? Goldrausch am Yukon - Das Abenteuer beginnt ...

    Mediainfo komplett:
    General
    Unique ID : 278875112511724857262558540002448762133 (0xD1CD649B319B14647616931848C5E515)
    Complete name : /Goldrausch am Yukon - S01E01 - Die Reise beginnt.mkv
    Format : Matroska
    Format version : Version 4
    File size : 3.23 GiB
    Duration : 1 h 31 min
    Overall bit rate : 5 076 kb/s
    Movie name : Goldrausch am Yukon - S01E01 - Die Reise beginnt
    Encoded date : UTC 2018-11-22T00:08:58Z
    Writing application : HandBrake 1.1.2 2018091000
    Writing library : Lavf57.7.2

    Video
    ID : 1
    Format : AVC
    Format/Info : Advanced Video Codec
    Format profile : [email protected]
    Format settings : CABAC / 2 Ref Frames
    Format settings, CABAC : Yes
    Format settings, ReFrames : 2 frames
    Codec ID : V_MPEG4/ISO/AVC
    Duration : 1 h 31 min
    Bit rate : 4 783 kb/s
    Width : 1 920 pixels
    Height : 1 080 pixels
    Display aspect ratio : 16:9
    Frame rate mode : Constant
    Frame rate : 25.000 FPS
    Color space : YUV
    Chroma subsampling : 4:2:0
    Bit depth : 8 bits
    Scan type : Progressive
    Bits/(Pixel*Frame) : 0.092
    Stream size : 3.04 GiB (94%)
    Writing library : x264 core 148 r2643 5c65704
    Encoding settings : cabac=1 / ref=2 / deblock=1:0:0 / analyse=0x1:0x131 / me=umh / subme=10 / psy=1 / psy_rd=1,00:0,00 / mixed_ref=1 / me_range=24 / chroma_me=1 / trellis=2 / 8x8dct=0 / cqm=0 / deadzone=21,11 / fast_pskip=1 / chroma_qp_offset=-2 / threads=12 / lookahead_threads=2 / sliced_threads=0 / nr=0 / decimate=1 / interlaced=0 / bluray_compat=0 / constrained_intra=0 / bframes=8 / b_pyramid=0 / b_adapt=2 / b_bias=0 / direct=3 / weightb=1 / open_gop=0 / weightp=2 / keyint=250 / keyint_min=25 / scenecut=40 / intra_refresh=0 / rc_lookahead=60 / rc=crf / mbtree=1 / crf=21,0 / qcomp=0,60 / qpmin=0 / qpmax=69 / qpstep=4 / vbv_maxrate=14000 / vbv_bufsize=14000 / crf_max=0,0 / nal_hrd=none / filler=0 / ip_ratio=1,40 / aq=1:1,00
    Default : Yes
    Forced : No
    Color range : Limited
    Color primaries : BT.709
    Transfer characteristics : BT.709
    Matrix coefficients : BT.709

    Audio
    ID : 2
    Format : AC-3
    Format/Info : Audio Coding 3
    Commercial name : Dolby Digital
    Codec ID : A_AC3
    Duration : 1 h 31 min
    Bit rate mode : Constant
    Bit rate : 192 kb/s
    Channel(s) : 2 channels
    Channel layout : L R
    Sampling rate : 48.0 kHz
    Frame rate : 31.250 FPS (1536 SPF)
    Bit depth : 16 bits
    Compression mode : Lossy
    Stream size : 125 MiB (4%)
    Title : Stereo
    Service kind : Complete Main
    Default : Yes
    Forced : No



    Download:

    *kein Passwort benötigt*
    Episoden 1-6


    Episode 6 vom 29.11 *neu*

    Episode 7: 6.12
    Episode 8: 13.12 (das große Finale)



    Bedanken tut nicht weh, und hält den Thread am Leben.

  2. #Free Download
    Power Free Uploader
    Registriert seit
    16.07.2014
    Beiträge
    2417
     

  3. #2
    dokkae.com Member Avatar von Naganime
    Registriert seit
    21.06.16
    Beiträge
    49
    Bedankt
    42
    Danke erhalten: 8
    Episode 6 hinzugefügt.

Berechtigungen

  • Neue Themen erstellen: Nein
  • Themen beantworten: Nein
  • Anhänge hochladen: Nein
  • Beiträge bearbeiten: Nein
  •